<?xml version="1.0" standalone="no"?>
<!DOCTYPE svg PUBLIC "-//W3C//DTD SVG 1.1//EN" "http://www.w3.org/Graphics/SVG/1.1/DTD/svg11.dtd" >
<svg xmlns="http://www.w3.org/2000/svg">
<metadata></metadata>
<defs>
<font id="avenir_85_heavyregular" horiz-adv-x="1175" >
<font-face units-per-em="2048" ascent="1638" descent="-410" />
<missing-glyph horiz-adv-x="606" />
<glyph horiz-adv-x="2048" />
<glyph horiz-adv-x="2048" />
<glyph unicode="&#xd;" horiz-adv-x="2048" />
<glyph unicode=" "  horiz-adv-x="606" />
<glyph unicode="&#x09;" horiz-adv-x="606" />
<glyph unicode="&#xa0;" horiz-adv-x="606" />
<glyph unicode="!" horiz-adv-x="606" d="M139 143q0 66 48 113t116 47q67 0 115.5 -45.5t48.5 -110.5q0 -66 -48 -112.5t-116 -46.5q-66 0 -115 45t-49 110zM180 455v995h246v-995h-246z" />
<glyph unicode="&#x22;" horiz-adv-x="1062" d="M246 909v541h209v-541h-209zM608 909v541h209v-541h-209z" />
<glyph unicode="#" horiz-adv-x="1212" d="M96 428v172h207l37 250h-184v172h206l62 428h180l-61 -428h211l61 428h178l-61 -428h184v-172h-209l-35 -250h185v-172h-205l-64 -428h-178l62 428h-213l-62 -428h-178l62 428h-185zM483 600h211l35 250h-211z" />
<glyph unicode="$" horiz-adv-x="1212" d="M63 158l187 190q48 -66 125 -104.5t166 -46.5v432l-11 2q-78 21 -134 42t-116 55.5t-97 76.5t-61 105t-24 141q0 89 37 165.5t99 129t141 85.5t166 42v137h110v-135h19q107 0 216 -37.5t185 -104.5l-170 -190q-48 51 -114 80.5t-136 29.5v-409l8 -2q59 -16 98.5 -28 t92.5 -32t87.5 -41t72.5 -52.5t59.5 -68t36 -86t14.5 -108.5q0 -131 -64 -229.5t-168 -152t-237 -67.5v-147h-110v145q-300 -3 -478 183zM356 1063q0 -23 4.5 -42.5t10 -33.5t18.5 -27.5t22 -21.5t29 -18.5t30 -15t35.5 -15t35.5 -15.5v375q-77 -13 -131 -62.5t-54 -123.5z M651 197q92 19 151.5 72.5t59.5 138.5q0 33 -12.5 60.5t-29.5 45t-47.5 33.5t-52 24.5t-57.5 20.5q-8 3 -12 4v-399z" />
<glyph unicode="%" horiz-adv-x="1857" d="M61 1094q0 158 111.5 269.5t269.5 111.5t269.5 -111.5t111.5 -269.5t-111.5 -269.5t-269.5 -111.5t-269.5 111.5t-111.5 269.5zM258 1094q0 -77 54 -131t130 -54t130.5 54.5t54.5 130.5t-54 130t-131 54q-76 0 -130 -54t-54 -130zM420 12l852 1504l170 -78l-852 -1504z M1034 356q0 158 111.5 269.5t269.5 111.5t269.5 -111.5t111.5 -269.5t-111.5 -269.5t-269.5 -111.5t-269.5 111.5t-111.5 269.5zM1231 356q0 -76 53.5 -130t130.5 -54t130.5 54t53.5 130q0 77 -54 131t-130 54t-130 -54t-54 -131z" />
<glyph unicode="&#x26;" horiz-adv-x="1517" d="M98 389q0 140 88 247t226 161q-85 94 -125.5 165t-40.5 168q0 86 34 155.5t92 112.5t132.5 66t157.5 23t155.5 -21t130 -61.5t90.5 -108t33 -153.5q0 -122 -82 -216t-207 -159l234 -252l162 246h288l-290 -420l313 -342h-318l-153 166q-89 -105 -190.5 -154t-237.5 -49 q-97 0 -185 28.5t-157 80.5t-109.5 134.5t-40.5 182.5zM369 403q0 -94 67.5 -156.5t161.5 -62.5q40 0 77 11.5t72 35t58.5 43.5t58.5 54l-297 323q-45 -27 -73 -46.5t-60.5 -50.5t-48.5 -68.5t-16 -82.5zM492 1120q0 -51 37.5 -102t99.5 -109q38 21 67 40t61.5 47t50 62 t17.5 72q0 58 -46 97t-113 39q-72 0 -123 -41.5t-51 -104.5z" />
<glyph unicode="'" horiz-adv-x="606" d="M199 909v541h209v-541h-209z" />
<glyph unicode="(" horiz-adv-x="606" d="M98 590q0 245 78.5 478.5t220.5 430.5l174 -106l-2 -9q-124 -172 -193 -378.5t-69 -415.5q0 -210 69 -417.5t193 -379.5l-172 -112q-143 198 -221 430.5t-78 478.5z" />
<glyph unicode=")" horiz-adv-x="606" d="M35 -213l2 8q124 172 193 379t69 416q0 210 -69 416t-193 378l172 115q143 -198 221 -430.5t78 -478.5q0 -245 -78.5 -478.5t-220.5 -430.5z" />
<glyph unicode="*" horiz-adv-x="948" d="M57 1092l54 163l278 -96v291h172v-291l277 90l53 -164l-279 -90l176 -239l-141 -103l-176 242l-172 -236l-137 105l176 231z" />
<glyph unicode="+" horiz-adv-x="1363" d="M127 516v209h451v451h208v-451h451v-209h-451v-450h-208v450h-451z" />
<glyph unicode="," horiz-adv-x="606" d="M78 -258l143 541h250l-174 -541h-219z" />
<glyph unicode="-" horiz-adv-x="645" d="M70 399v209h505v-209h-505z" />
<glyph unicode="." horiz-adv-x="606" d="M139 143q0 66 48 113t116 47q67 0 115.5 -45.5t48.5 -110.5q0 -66 -48 -112.5t-116 -46.5q-66 0 -115 45t-49 110z" />
<glyph unicode="/" horiz-adv-x="796" d="M-18 -37l639 1589l170 -65l-639 -1585z" />
<glyph unicode="0" horiz-adv-x="1212" d="M82 725q0 142 21 257.5t54 191.5t80.5 133.5t93.5 88.5t100.5 50t94 24t80.5 5t80.5 -5t94 -24t100.5 -50t93.5 -88.5t80.5 -133.5t54 -191.5t21 -257.5t-21 -257.5t-54 -191.5t-80.5 -133.5t-93.5 -88.5t-100.5 -50t-94 -24t-80.5 -5t-80.5 5t-94 24t-100.5 50 t-93.5 88.5t-80.5 133.5t-54 191.5t-21 257.5zM328 725q0 -44 2.5 -86t10 -95t19.5 -98t33.5 -90t49.5 -76.5t70 -51t93 -19.5q59 0 106 25t76 69.5t49.5 95.5t30 113t13.5 111.5t4 101.5t-4 101.5t-13.5 111.5t-30 113t-49.5 95.5t-76 69.5t-106 25q-51 0 -93 -19.5 t-70 -51t-49.5 -76.5t-33.5 -90t-19.5 -98t-10 -95t-2.5 -86z" />
<glyph unicode="1" horiz-adv-x="1212" d="M133 1085l438 365h224v-1450h-246v1167l-273 -252z" />
<glyph unicode="2" horiz-adv-x="1212" d="M121 0v260l563 545q35 34 54 54t45 54t38.5 68t12.5 70q0 86 -61.5 138t-149.5 52q-90 0 -151 -53.5t-73 -143.5l-258 21q18 196 149 303t333 107q133 0 237 -43.5t168 -138.5t64 -230q0 -127 -57.5 -226.5t-166.5 -199.5l-448 -416h672v-221h-971z" />
<glyph unicode="3" horiz-adv-x="1212" d="M94 315l262 70q49 -188 236 -188q101 0 172.5 64t71.5 163q0 221 -322 221h-59v221h63q48 0 84 3.5t75.5 15.5t65 32.5t42 57.5t16.5 88q0 83 -58 136.5t-149 53.5q-74 0 -132.5 -42.5t-84.5 -116.5l-260 69q31 104 101.5 175.5t162.5 104t201 32.5q128 0 231.5 -42.5 t168.5 -132.5t65 -213q0 -118 -67 -208t-181 -119v-4q134 -20 208 -117.5t74 -235.5q0 -133 -69 -232t-178.5 -147.5t-241.5 -48.5q-91 0 -169.5 19.5t-144.5 59.5t-113.5 106t-70.5 155z" />
<glyph unicode="4" horiz-adv-x="1212" d="M70 295v244l583 911h279v-934h211v-221h-211v-295h-246v295h-616zM319 516h367v586h-4z" />
<glyph unicode="5" horiz-adv-x="1212" d="M90 307l258 70q25 -80 85.5 -124t152.5 -44q110 0 181 71t71 177q0 74 -27.5 129t-75.5 87.5t-107.5 48t-129.5 15.5q-165 0 -303 -69l14 782h825v-221h-583l-7 -289q59 18 156 18q215 0 349 -131.5t134 -349.5q0 -152 -69 -267t-187.5 -175t-267.5 -60q-175 0 -297 84 t-172 248z" />
<glyph unicode="6" horiz-adv-x="1212" d="M90 469q0 106 34 198.5t101 198.5l371 584h299l-348 -537l4 -4q45 25 135 25q125 0 225.5 -63t155.5 -169t55 -231q0 -223 -145 -359.5t-371 -136.5q-230 0 -373 133.5t-143 360.5zM348 473q0 -109 77.5 -186.5t186.5 -77.5t187 77.5t78 186.5t-78 186.5t-187 77.5 t-186.5 -77.5t-77.5 -186.5z" />
<glyph unicode="7" horiz-adv-x="1212" d="M86 1217v233h985v-225l-579 -1225h-289l592 1217h-709z" />
<glyph unicode="8" horiz-adv-x="1212" d="M117 412q0 129 78.5 229t185.5 123v4q-106 31 -162.5 119t-56.5 207q0 177 126 279t318 102t318.5 -102t126.5 -279q0 -119 -57 -207t-163 -119v-4q108 -22 186.5 -122t78.5 -230q0 -139 -67 -239.5t-176 -149t-247 -48.5t-247 48.5t-175.5 149t-66.5 239.5zM362 442 q0 -102 69 -167.5t175 -65.5t175 65.5t69 167.5q0 98 -71.5 163t-172.5 65t-172.5 -65t-71.5 -163zM408 1069q0 -88 54.5 -145.5t143.5 -57.5q82 0 140.5 58.5t58.5 144.5q0 82 -57.5 139.5t-141.5 57.5q-91 0 -144.5 -56t-53.5 -141z" />
<glyph unicode="9" horiz-adv-x="1212" d="M90 979q0 223 145 359.5t371 136.5q230 0 373 -133.5t143 -360.5q0 -106 -34 -198.5t-101 -198.5l-371 -584h-299l349 537l-4 4q-45 -25 -136 -25q-125 0 -225.5 63t-155.5 169t-55 231zM336 977q0 -109 77.5 -186.5t186.5 -77.5t186.5 77.5t77.5 186.5t-77.5 186.5 t-186.5 77.5t-186.5 -77.5t-77.5 -186.5z" />
<glyph unicode=":" horiz-adv-x="606" d="M139 143q0 66 48 113t116 47q67 0 115.5 -45.5t48.5 -110.5q0 -66 -48 -112.5t-116 -46.5q-66 0 -115 45t-49 110zM139 838q0 66 48 112.5t116 46.5q67 0 115.5 -45t48.5 -110q0 -66 -48 -113t-116 -47q-66 0 -115 45.5t-49 110.5z" />
<glyph unicode=";" horiz-adv-x="606" d="M78 -258l143 541h250l-174 -541h-219zM139 838q0 66 48 112.5t116 46.5q67 0 115.5 -45t48.5 -110q0 -66 -48 -113t-116 -47q-66 0 -115 45.5t-49 110.5z" />
<glyph unicode="&#x3c;" horiz-adv-x="1363" d="M164 547v147l1036 461v-225l-692 -309l692 -310v-225z" />
<glyph unicode="=" horiz-adv-x="1363" d="M127 332v209h1110v-209h-1110zM127 700v209h1110v-209h-1110z" />
<glyph unicode="&#x3e;" horiz-adv-x="1363" d="M164 86v225l692 310l-692 309v225l1036 -461v-147z" />
<glyph unicode="?" horiz-adv-x="1062" d="M98 1073q23 194 151.5 304t325.5 110q190 0 311.5 -106t121.5 -294q0 -78 -31.5 -146t-63.5 -103t-104 -103l-8 -8t-8 -7.5t-9 -8.5q-31 -29 -41.5 -39.5t-28.5 -32t-23 -37t-10 -40t-5 -56.5v-78h-246v113q0 61 12 100t31 64t68 75l157 160q52 52 52 133 q0 79 -52.5 129.5t-132.5 50.5q-84 0 -140.5 -57.5t-64.5 -142.5zM389 143q0 66 48 113t116 47q67 0 115.5 -45.5t48.5 -110.5q0 -66 -48 -112.5t-116 -46.5q-66 0 -115 45t-49 110z" />
<glyph unicode="@" horiz-adv-x="1638" d="M66 723q0 160 62 302.5t167 243.5t249 159.5t304 58.5q109 0 213.5 -28t197 -85t162.5 -136t111 -189t41 -236q0 -90 -19 -165t-49.5 -125.5t-72 -89.5t-83.5 -61t-87.5 -36t-79.5 -18.5t-64 -4.5q-80 0 -120 33t-42 78h-4q-107 -111 -262 -111q-132 0 -213.5 95.5 t-81.5 248.5q0 121 48.5 225.5t143.5 170t218 65.5q83 0 137 -27.5t84 -89.5h4l17 93h192l-76 -404q-18 -88 -18 -117q0 -39 12 -57t43 -18q72 0 124 78t52 227q0 160 -69 274.5t-188.5 170t-276.5 55.5q-253 0 -410.5 -163t-157.5 -417q0 -175 78.5 -307t215 -200.5 t309.5 -68.5q231 0 387 125h225q-107 -149 -273 -229t-356 -80q-217 0 -398 96.5t-288.5 271.5t-107.5 392zM604 686q0 -188 170 -188q56 0 96.5 22t62 59.5t31 78.5t9.5 87q0 85 -39 137t-113 52q-100 0 -158.5 -71.5t-58.5 -176.5z" />
<glyph unicode="A" horiz-adv-x="1478" d="M0 0l631 1450h223l625 -1450h-295l-135 332h-629l-131 -332h-289zM508 553h450l-223 590z" />
<glyph unicode="B" horiz-adv-x="1327" d="M162 0v1450h565q86 0 162.5 -20.5t141 -62.5t102.5 -114.5t38 -167.5q0 -120 -67.5 -201t-183.5 -116v-4q137 -15 225 -113t88 -237q0 -91 -31 -163.5t-83 -118.5t-124 -76.5t-148.5 -43t-162.5 -12.5h-522zM420 221h237q318 0 318 213q0 112 -73.5 158.5t-233.5 46.5 h-248v-418zM420 860h235q126 0 192 49t66 133q0 95 -67.5 141t-212.5 46h-213v-369z" />
<glyph unicode="C" horiz-adv-x="1402" d="M84 719q0 229 98.5 404.5t272 269.5t395.5 94q310 0 508 -230l-201 -147q-134 143 -305 143q-146 0 -260.5 -69t-176 -187t-61.5 -262q0 -234 138 -386t360 -152q189 0 326 176l213 -152q-95 -131 -235 -194.5t-306 -63.5q-221 0 -395.5 94t-272.5 266.5t-98 395.5z" />
<glyph unicode="D" horiz-adv-x="1554" d="M162 0v1450h571q116 0 223 -27.5t201 -86.5t163.5 -143t109.5 -204t40 -264q0 -143 -46.5 -265t-123.5 -205t-177.5 -142t-207 -86t-213.5 -27h-540zM420 233h192q125 0 229 28t186 85.5t127.5 154t45.5 224.5q0 129 -40.5 225t-114.5 153.5t-171.5 85.5t-218.5 28h-235 v-984z" />
<glyph unicode="E" horiz-adv-x="1251" d="M162 0v1450h960v-233h-702v-357h665v-233h-665v-394h739v-233h-997z" />
<glyph unicode="F" d="M162 0v1450h936v-233h-678v-381h639v-234h-639v-602h-258z" />
<glyph unicode="G" horiz-adv-x="1593" d="M84 719q0 229 98.5 404.5t272 269.5t395.5 94q366 0 571 -182l-190 -193q-68 67 -168.5 104t-210.5 37q-146 0 -260.5 -69t-176 -187t-61.5 -262q0 -234 138 -386t360 -152q208 0 340 75v342h-297v234h555v-742q-268 -143 -600 -143q-221 0 -395.5 94t-272.5 266.5 t-98 395.5z" />
<glyph unicode="H" horiz-adv-x="1517" d="M162 0v1450h258v-578h678v578h258v-1450h-258v639h-678v-639h-258z" />
<glyph unicode="I" horiz-adv-x="569" d="M156 0v1450h258v-1450h-258z" />
<glyph unicode="J" horiz-adv-x="1024" d="M10 297l242 57q12 -71 58.5 -114t113.5 -43q105 0 147.5 70.5t42.5 209.5v973h258v-1049q0 -88 -28 -166t-80.5 -139.5t-137 -97t-190.5 -35.5q-174 0 -283.5 83t-142.5 251z" />
<glyph unicode="K" horiz-adv-x="1402" d="M162 0v1450h258v-614h12l600 614h348l-678 -670l723 -780h-362l-629 713h-14v-713h-258z" />
<glyph unicode="L" horiz-adv-x="1062" d="M162 0v1450h258v-1217h616v-233h-874z" />
<glyph unicode="M" horiz-adv-x="1896" d="M168 0v1450h393l387 -1016l391 1016h390v-1450h-246v1204h-4l-441 -1204h-180l-440 1204h-4v-1204h-246z" />
<glyph unicode="N" horiz-adv-x="1630" d="M162 0v1450h342l702 -1077l4 -4h-4l4 4v1077h258v-1450h-327l-717 1112h-4v-1112h-258z" />
<glyph unicode="O" horiz-adv-x="1705" d="M84 719q0 229 98.5 404.5t272 269.5t395.5 94h18q158 -1 294 -51q144 -54 245 -152t158 -241.5t57 -315.5q0 -223 -98 -396t-273.5 -268.5t-400.5 -99.5q-221 0 -395.5 94t-272.5 266.5t-98 395.5zM354 735q0 -234 138 -386t360 -152q223 0 361.5 152t138.5 386 q0 144 -61.5 262t-176.5 187t-262 69q-146 0 -260.5 -69t-176 -187t-61.5 -262z" />
<glyph unicode="P" horiz-adv-x="1251" d="M162 0v1450h487q88 0 164 -12.5t145.5 -43t118.5 -77.5t78 -120t29 -167q0 -89 -21 -158.5t-61.5 -115.5t-91.5 -77.5t-120 -48.5t-136 -23.5t-150 -6.5h-184v-600h-258zM420 821h155q39 0 65.5 1t65 5.5t65 12t55.5 23t46.5 36.5t29 53.5t11.5 73.5q0 63 -27.5 106 t-76.5 63t-96.5 27t-108.5 7h-184v-408z" />
<glyph unicode="Q" horiz-adv-x="1744" d="M84 756q0 156 61 293t164.5 232.5t243 150.5t293.5 55t293.5 -55t243 -150.5t164.5 -232.5t61 -293q0 -87 -19 -165t-48 -134.5t-71 -105t-82 -80.5t-85 -58v-4h415v-209h-844q-169 0 -314 52.5t-250.5 148.5t-165.5 239t-60 316zM354 750q0 -223 139 -370t351 -147 q215 0 354 147t139 370q0 218 -139.5 360.5t-357.5 142.5q-210 0 -348 -143t-138 -360z" />
<glyph unicode="R" horiz-adv-x="1290" d="M162 0v1450h504q88 0 163.5 -11.5t146.5 -41t120.5 -75.5t79.5 -119.5t30 -168.5q0 -159 -88.5 -264.5t-247.5 -128.5l385 -641h-311l-336 614h-188v-614h-258zM420 836h201q43 0 74 2t71 8t67.5 19.5t52.5 35t37.5 56t12.5 79.5q0 50 -18.5 86t-46 56.5t-68.5 32 t-77.5 15t-82.5 3.5h-223v-393z" />
<glyph unicode="S" d="M63 160l195 188q47 -71 123.5 -111t163.5 -40q99 0 176.5 52.5t77.5 145.5q0 50 -23.5 88.5t-63.5 62.5t-91.5 44t-108.5 38t-114 39t-108.5 53t-91.5 74t-63.5 107t-23.5 148q0 108 45.5 194t121.5 138t170 79t197 27q256 0 416 -150l-189 -198q-40 56 -107.5 85 t-146.5 29q-99 0 -168 -46.5t-69 -139.5q0 -46 23.5 -81t63.5 -58t91.5 -41.5t108.5 -37t114 -39.5t108.5 -53.5t91.5 -75t63.5 -107.5t23.5 -148q0 -113 -42.5 -203t-116 -146t-168 -85t-203.5 -29q-143 0 -267 48t-209 149z" />
<glyph unicode="T" d="M14 1217v233h1147v-233h-444v-1217h-258v1217h-445z" />
<glyph unicode="U" horiz-adv-x="1478" d="M156 532v918h258v-909q0 -45 9.5 -89.5t33.5 -89t60 -78t93.5 -54.5t128.5 -21q88 0 154.5 31t102 82t52.5 106t17 113v909h258v-918q0 -171 -77 -301.5t-209 -199t-298 -68.5t-298 68.5t-208.5 199t-76.5 301.5z" />
<glyph unicode="V" horiz-adv-x="1366" d="M-6 1450h297l395 -1096l408 1096h278l-586 -1450h-223z" />
<glyph unicode="W" horiz-adv-x="2009" d="M0 1450h283l272 -1044h4l326 1044h254l319 -1044h4l285 1044h262l-422 -1450h-246l-335 1104h-5l-335 -1104h-238z" />
<glyph unicode="X" horiz-adv-x="1402" d="M0 0l516 758l-483 692h325l342 -537l338 537h314l-475 -692l526 -758h-328l-383 612l-381 -612h-311z" />
<glyph unicode="Y" horiz-adv-x="1290" d="M-29 1450h324l356 -578l361 578h307l-545 -829v-621h-258v621z" />
<glyph unicode="Z" horiz-adv-x="1251" d="M72 0v233l774 984h-762v233h1083v-233l-780 -984h793v-233h-1108z" />
<glyph unicode="[" horiz-adv-x="569" d="M135 -319v1818h393v-160h-184v-1499h184v-159h-393z" />
<glyph unicode="\" horiz-adv-x="796" d="M6 1487l170 65l639 -1589l-170 -61z" />
<glyph unicode="]" horiz-adv-x="569" d="M41 -160h184v1499h-184v160h393v-1818h-393v159z" />
<glyph unicode="^" horiz-adv-x="1363" d="M141 702l457 748h168l457 -748h-242l-301 490l-297 -490h-242z" />
<glyph unicode="_" horiz-adv-x="1024" d="M0 -154h1024v-102h-1024v102z" />
<glyph unicode="`" horiz-adv-x="532" d="M-119 1450h279l202 -295h-192z" />
<glyph unicode="a" horiz-adv-x="1099" d="M74 270q0 66 22 119t56.5 88.5t88 61t104.5 39.5t117.5 22t117 10t112.5 2h62v27q0 88 -62 136t-164 48q-152 0 -262 -102l-129 129q155 158 418 158q68 0 125 -11t97.5 -28t73 -45.5t52.5 -54t35 -63t22 -64t10.5 -66t4 -59t0.5 -52.5v-565h-221v135h-6 q-101 -160 -316 -160q-94 0 -173.5 32t-132 101t-52.5 162zM319 289q0 -63 52.5 -96t120.5 -33q123 0 185 59.5t62 165.5v55h-51q-369 0 -369 -151z" />
<glyph unicode="b" horiz-adv-x="1290" d="M139 0v1548h246v-690h6q121 150 334 150q208 0 341.5 -147.5t133.5 -368.5q0 -146 -57 -262.5t-168.5 -185.5t-259.5 -69q-107 0 -196.5 43t-141.5 129h-4v-147h-234zM377 492q0 -121 79.5 -208t209.5 -87t209 87t79 208t-79 207.5t-209 86.5t-209.5 -86.5t-79.5 -207.5z " />
<glyph unicode="c" horiz-adv-x="987" d="M90 492q0 151 72 270t193.5 182.5t269.5 63.5q99 0 193.5 -37.5t162.5 -112.5l-170 -170q-95 98 -186 98q-130 0 -209.5 -86.5t-79.5 -207.5t79.5 -208t209.5 -87q120 0 190 92l164 -176q-68 -68 -172 -103t-182 -35q-148 0 -269.5 64t-193.5 183t-72 270z" />
<glyph unicode="d" horiz-adv-x="1290" d="M90 492q0 221 133.5 368.5t341.5 147.5q213 0 334 -150h6v690h246v-1548h-233v147h-5q-52 -86 -141.5 -129t-196.5 -43q-148 0 -259.5 69t-168.5 185.5t-57 262.5zM336 492q0 -121 79.5 -208t209.5 -87t209 87t79 208t-79 207.5t-209 86.5t-209.5 -86.5t-79.5 -207.5z " />
<glyph unicode="e" d="M90 492q0 151 72 270t193.5 182.5t269.5 63.5q209 0 334.5 -141.5t125.5 -393.5v-67h-749q12 -107 85.5 -170.5t178.5 -63.5q157 0 264 133l176 -133q-161 -197 -415 -197q-148 0 -269.5 64t-193.5 183t-72 270zM336 590h504q-2 108 -68.5 170.5t-181.5 62.5 q-107 0 -173.5 -62.5t-80.5 -170.5z" />
<glyph unicode="f" horiz-adv-x="720" d="M25 774v209h202v139q0 87 9 152t32.5 123.5t64 95.5t106 58.5t155.5 21.5q85 0 156 -14l-17 -209q-61 14 -102 14q-49 0 -82 -15.5t-48.5 -46t-21.5 -63t-6 -78.5v-178h227v-209h-227v-774h-246v774h-202z" />
<glyph unicode="g" horiz-adv-x="1290" d="M90 492q0 224 131.5 370t353.5 146q107 0 196.5 -43t141.5 -129h5v147h233v-895q0 -274 -138 -427t-417 -153q-304 0 -487 162l147 201q77 -70 158 -105.5t180 -35.5q169 0 240 85.5t71 243.5v72h-4q-52 -70 -138.5 -106.5t-182.5 -36.5q-144 0 -257 68t-173 182.5 t-60 253.5zM336 494q0 -118 83 -201.5t206 -83.5q134 0 213.5 81.5t79.5 207.5q0 129 -79.5 208.5t-211.5 79.5q-129 0 -210 -81t-81 -211z" />
<glyph unicode="h" d="M139 0v1548h246v-702h4q32 68 107 115t182 47q95 0 166.5 -31.5t112 -87t60 -122.5t19.5 -146v-621h-245v498q0 42 -2 73t-12.5 74.5t-28.5 71.5t-53.5 48.5t-84.5 20.5q-114 0 -169.5 -70.5t-55.5 -178.5v-537h-246z" />
<glyph unicode="i" horiz-adv-x="532" d="M109 1317q0 60 44.5 103.5t110.5 43.5q68 0 114 -42t46 -105t-46 -105.5t-114 -42.5q-66 0 -110.5 44t-44.5 104zM143 0v983h246v-983h-246z" />
<glyph unicode="j" horiz-adv-x="532" d="M-76 -473l19 213q45 -10 77 -10q30 0 52 8.5t35 26.5t20.5 35t11 46t4 45.5t0.5 47.5v1044h246v-1042q0 -80 -7.5 -140t-28.5 -118t-57.5 -94.5t-96.5 -58.5t-142 -22q-75 0 -133 19zM109 1317q0 60 44.5 103.5t110.5 43.5q68 0 114 -42t46 -105t-46 -105.5t-114 -42.5 q-66 0 -110.5 44t-44.5 104z" />
<glyph unicode="k" horiz-adv-x="1099" d="M139 0v1548h246v-973l379 408h315l-422 -446l449 -537h-326l-391 502h-4v-502h-246z" />
<glyph unicode="l" horiz-adv-x="532" d="M143 0v1548h246v-1548h-246z" />
<glyph unicode="m" horiz-adv-x="1781" d="M129 0v983h233v-154h5q36 78 111.5 128.5t189.5 50.5q231 0 307 -183q105 183 323 183q77 0 137.5 -21.5t101 -59t67 -91.5t38 -115.5t11.5 -134.5v-586h-246v557q0 229 -182 229q-107 0 -159 -73.5t-52 -180.5v-532h-246v586q0 200 -168 200q-114 0 -169.5 -70.5 t-55.5 -178.5v-537h-246z" />
<glyph unicode="n" d="M139 0v983h234v-158h4q37 82 111.5 132.5t189.5 50.5q95 0 166.5 -31.5t112 -87t60 -122.5t19.5 -146v-621h-245v498q0 42 -2 73t-12.5 74.5t-28.5 71.5t-53.5 48.5t-84.5 20.5q-114 0 -169.5 -70.5t-55.5 -178.5v-537h-246z" />
<glyph unicode="o" horiz-adv-x="1249" d="M90 492q0 151 72 270t193.5 182.5t269.5 63.5t269.5 -64t193 -182.5t71.5 -269.5t-71.5 -270t-193 -183t-269.5 -64t-269.5 64t-193.5 183t-72 270zM336 492q0 -121 79.5 -208t209.5 -87t209 87t79 208t-79 207.5t-209 86.5t-209.5 -86.5t-79.5 -207.5z" />
<glyph unicode="p" horiz-adv-x="1290" d="M139 -467v1450h234v-147h4q52 86 141.5 129t196.5 43q222 0 353.5 -146t131.5 -370q0 -221 -133.5 -369t-341.5 -148q-213 0 -334 150h-6v-592h-246zM377 492q0 -121 79.5 -208t209.5 -87t209 87t79 208t-79 207.5t-209 86.5t-209.5 -86.5t-79.5 -207.5z" />
<glyph unicode="q" horiz-adv-x="1290" d="M90 492q0 224 131.5 370t353.5 146q107 0 196.5 -43t141.5 -129h5v147h233v-1450h-246v592h-6q-121 -150 -334 -150q-208 0 -341.5 148t-133.5 369zM336 492q0 -121 79.5 -208t209.5 -87t209 87t79 208t-79 207.5t-209 86.5t-209.5 -86.5t-79.5 -207.5z" />
<glyph unicode="r" horiz-adv-x="796" d="M139 0v983h246v-156h4q40 85 117 133t174 48q34 0 88 -15v-237q-74 18 -119 18q-65 0 -115.5 -21t-77.5 -50.5t-44 -66.5t-22 -63.5t-5 -46.5v-526h-246z" />
<glyph unicode="s" horiz-adv-x="909" d="M51 127l164 154q53 -59 107.5 -90t126.5 -31q62 0 112.5 29t50.5 83q0 36 -23 61t-60 37t-84.5 24.5t-97.5 22t-97.5 30t-84.5 48.5t-60 78t-23 117q0 79 33.5 141.5t90 100t125.5 57t146 19.5q107 0 200 -36.5t150 -113.5l-163 -147q-71 100 -193 100q-56 0 -99.5 -26.5 t-43.5 -77.5q0 -31 23 -52.5t60 -32.5t84.5 -23t97.5 -22.5t97.5 -32.5t84.5 -51.5t60 -81t23 -120.5q0 -84 -37.5 -147t-100 -99t-134.5 -53t-152 -17q-248 0 -383 152z" />
<glyph unicode="t" horiz-adv-x="796" d="M25 774v209h202v285h246v-285h270v-209h-270v-430q0 -80 30 -120t107 -40q91 0 133 31v-207q-67 -33 -194 -33q-96 0 -159.5 21.5t-99 67.5t-49.5 107.5t-14 152.5v450h-202z" />
<glyph unicode="u" d="M139 362v621h246v-498q0 -34 1.5 -59.5t6.5 -62.5t17.5 -63.5t31.5 -51.5t50.5 -38t72.5 -13q114 0 170 70.5t56 178.5v537h245v-983h-233v158h-4q-37 -82 -111.5 -132.5t-189.5 -50.5q-95 0 -166.5 31.5t-112.5 87t-60.5 122.5t-19.5 146z" />
<glyph unicode="v" horiz-adv-x="1062" d="M6 983h268l263 -688h4l264 688h252l-387 -983h-262z" />
<glyph unicode="w" horiz-adv-x="1630" d="M6 983h266l213 -688h4l199 688h266l213 -688h4l205 688h248l-334 -983h-243l-234 672h-4l-207 -672h-254z" />
<glyph unicode="x" horiz-adv-x="1099" d="M-2 0l395 528l-340 455h299l197 -295l213 295h280l-335 -455l395 -528h-299l-256 352l-258 -352h-291z" />
<glyph unicode="y" horiz-adv-x="1062" d="M6 983h270l275 -682h4l246 682h256l-465 -1194q-29 -73 -59 -122t-73.5 -86.5t-103 -55t-139.5 -17.5q-93 0 -188 25l30 221q67 -24 125 -24q86 0 124 31.5t71 113.5l47 117z" />
<glyph unicode="z" horiz-adv-x="987" d="M70 0v227l526 555v4h-502v197h799v-223l-533 -563h558v-197h-848z" />
<glyph unicode="{" horiz-adv-x="569" d="M0 500v180q26 0 55 6.5t62 21t54.5 44.5t21.5 71v406q0 65 28 119t70 85.5t85.5 48.5t78.5 17h186v-172h-113q-41 0 -68.5 -13t-39 -37t-15.5 -45t-4 -48v-385q-1 -46 -16 -82t-36 -57.5t-50 -37t-52 -21.5t-46 -9v-4q26 -2 46.5 -6.5t51 -18.5t51 -36t35.5 -63t16 -95 v-373q0 -27 4 -48t15.5 -45t39 -37t68.5 -13h113v-172h-186q-35 0 -78.5 17t-85.5 48.5t-70 85.5t-28 119v391q0 45 -21.5 78.5t-54.5 49.5t-62.5 23t-54.5 7z" />
<glyph unicode="|" horiz-adv-x="454" d="M123 -512v2048h209v-2048h-209z" />
<glyph unicode="}" horiz-adv-x="569" d="M-72 -147h113q41 0 68.5 13t39 37t15.5 45t4 48v385q1 46 16 82t36.5 57.5t50.5 37t52 21.5t46 9v4q-26 2 -47 6.5t-51 18.5t-51 36t-36 63t-16 95v373q0 27 -4 48t-15.5 45t-39 37t-68.5 13h-113v172h187q35 0 78.5 -17t85.5 -48.5t70 -85.5t28 -119v-391 q0 -45 21.5 -78.5t54 -49.5t62 -23t54.5 -7v-180q-25 0 -54.5 -6.5t-62 -21t-54 -45t-21.5 -71.5v-405q0 -65 -28 -119t-70 -85.5t-85.5 -48.5t-78.5 -17h-187v172z" />
<glyph unicode="~" horiz-adv-x="1363" d="M207 612q92 176 250 176q92 0 237 -65q15 -6 44.5 -19.5t47 -21t40.5 -16.5t41.5 -13t33.5 -4q28 0 53 10.5t47.5 31.5t37.5 39t36 47q5 7 8 11l74 -172q-23 -32 -38.5 -52t-41 -46.5t-49.5 -41t-57 -25.5t-70 -11q-84 0 -209 68q-128 72 -235 72q-63 0 -103 -39 t-73 -101z" />
<glyph unicode="&#xa1;" horiz-adv-x="606" d="M139 848q0 66 48 113t116 47q66 0 115 -45.5t49 -110.5q0 -66 -48 -113t-116 -47q-67 0 -115.5 45.5t-48.5 110.5zM180 -455v998h246v-998h-246z" />
<glyph unicode="&#xa2;" horiz-adv-x="1212" d="M160 494q0 213 121.5 349.5t332.5 164.5v137h111v-137q235 -7 348 -142l-158 -159q-83 86 -190 92v-615q55 0 108 26t91 69l149 -162q-63 -69 -154.5 -104t-193.5 -38v-147h-111v147q-207 18 -330.5 163t-123.5 356zM393 492q0 -111 58 -196t163 -112v613 q-110 -22 -165.5 -104.5t-55.5 -200.5z" />
<glyph unicode="&#xa3;" horiz-adv-x="1212" d="M135 0v197h209v448h-209v172h209v205q0 63 16.5 125t54 122t91 105.5t134.5 73t179 27.5q113 0 215.5 -33.5t175.5 -98.5l-166 -178q-94 88 -217 88q-109 0 -173 -74.5t-64 -177.5v-184h332v-172h-332v-448h518v-197h-973z" />
<glyph unicode="&#xa4;" horiz-adv-x="1212" d="M74 317l100 101q-100 137 -100 309q0 169 100 309l-100 101l123 120l100 -98q138 98 309 98t309 -98l101 98l123 -120l-101 -101q101 -138 101 -309q0 -168 -101 -309l101 -101l-123 -122l-101 100q-137 -100 -309 -100q-173 0 -309 100l-100 -100zM307 727 q0 -141 81.5 -226t217.5 -85t217.5 85t81.5 226t-81.5 225t-217.5 84t-217.5 -84t-81.5 -225z" />
<glyph unicode="&#xa5;" horiz-adv-x="1212" d="M25 1450h276l317 -602l306 602h264l-332 -600h221v-160h-309l-39 -69v-99h348v-160h-348v-362h-246v362h-348v160h348v99l-39 69h-309v160h221z" />
<glyph unicode="&#xa6;" horiz-adv-x="454" d="M123 358h209v-716h-209v716zM123 666v716h209v-716h-209z" />
<glyph unicode="&#xa7;" horiz-adv-x="1214" d="M109 -43l219 106q21 -72 86.5 -110.5t146.5 -38.5q75 0 132 32.5t57 100.5q0 40 -26.5 73.5t-69.5 56t-98.5 47.5t-113 47t-113 54.5t-98.5 69t-69.5 93t-26.5 124.5q0 197 197 303q-135 85 -135 234q0 82 36.5 148t96.5 106.5t133 62t151 21.5q134 0 248 -50t168 -157 l-215 -121q-21 60 -74.5 95.5t-119.5 35.5q-68 0 -117 -34.5t-49 -100.5q0 -46 34 -83t88 -64t119.5 -54t131 -60.5t119.5 -74t88 -104t34 -142.5q0 -83 -48.5 -154.5t-125.5 -107.5q125 -92 125 -243q0 -72 -27 -132.5t-72 -102.5t-104.5 -71.5t-123.5 -43t-130 -13.5 q-341 0 -454 252zM369 664q0 -29 12 -54t25.5 -40.5t43 -33.5t44 -24.5t49.5 -22.5l198 -92q38 21 66.5 62.5t28.5 81.5q0 21 -4.5 39.5t-16 34t-20.5 26.5t-28.5 24t-29.5 19t-34.5 19t-32.5 18l-183 86q-59 -28 -88.5 -58t-29.5 -85z" />
<glyph unicode="&#xa8;" horiz-adv-x="532" d="M-102 1303q0 60 44.5 103.5t110.5 43.5q68 0 114 -42t46 -105t-46 -105.5t-114 -42.5q-66 0 -110.5 44t-44.5 104zM319 1303q0 60 45 103.5t111 43.5q68 0 114 -42t46 -105t-46 -105.5t-114 -42.5q-66 0 -111 44t-45 104z" />
<glyph unicode="&#xa9;" horiz-adv-x="1638" d="M57 725q0 155 60.5 296t162.5 243t243 162.5t296 60.5t296 -60.5t243 -162.5t162.5 -243t60.5 -296t-60.5 -296t-162.5 -243t-243 -162.5t-296 -60.5t-296 60.5t-243 162.5t-162.5 243t-60.5 296zM254 725q0 -122 44 -231t119.5 -188t180 -125t221.5 -46t221.5 46 t180 125t119.5 188t44 231t-44 231t-119.5 188t-180 125t-221.5 46t-221.5 -46t-180 -125t-119.5 -188t-44 -231zM432 731q0 194 106 312t298 118q144 0 245 -76.5t123 -220.5h-192q-24 125 -160 125q-113 0 -168 -68.5t-55 -185.5q0 -119 57.5 -194.5t161.5 -75.5 q70 0 115 34t49 109h192q-21 -149 -123 -232t-241 -83q-188 0 -298 124t-110 314z" />
<glyph unicode="&#xaa;" horiz-adv-x="714" d="M57 1051q0 40 14.5 72t37 53t58 36.5t68.5 23.5t77.5 12.5t76.5 5.5t74 1h35v17q0 34 -39 50.5t-103 16.5q-92 0 -170 -65l-88 108q106 93 283 93q146 0 211 -60t65 -186v-346h-159v80h-4q-29 -47 -87.5 -70t-123.5 -23q-31 0 -65.5 8t-73 26t-63 56t-24.5 91zM229 1057 q0 -29 31 -46.5t72 -17.5q157 0 157 127v13h-57q-203 0 -203 -76z" />
<glyph unicode="&#xab;" horiz-adv-x="1062" d="M61 508l312 459l153 -105l-235 -354l237 -358l-155 -105zM518 508l311 459l154 -105l-235 -354l237 -358l-156 -105z" />
<glyph unicode="&#xac;" horiz-adv-x="1363" d="M127 700v209h1110v-608h-209v399h-901z" />
<glyph unicode="&#xad;" horiz-adv-x="645" d="M70 399v209h505v-209h-505z" />
<glyph unicode="&#xae;" horiz-adv-x="1638" d="M57 725q0 155 60.5 296t162.5 243t243 162.5t296 60.5t296 -60.5t243 -162.5t162.5 -243t60.5 -296t-60.5 -296t-162.5 -243t-243 -162.5t-296 -60.5t-296 60.5t-243 162.5t-162.5 243t-60.5 296zM254 725q0 -122 44 -231t119.5 -188t180 -125t221.5 -46t221.5 46 t180 125t119.5 188t44 231t-44 231t-119.5 188t-180 125t-221.5 46t-221.5 -46t-180 -125t-119.5 -188t-44 -231zM526 334v799h256q361 0 361 -236q0 -101 -55 -168.5t-125 -77.5l204 -317h-215l-182 307h-47v-307h-197zM721 801h96q20 0 33 1t33 5.5t32 13t21.5 25.5 t9.5 41q0 29 -12.5 48t-35 26.5t-40 9.5t-41.5 2h-96v-172z" />
<glyph unicode="&#xaf;" horiz-adv-x="532" d="M-61 1219v159h655v-159h-655z" />
<glyph unicode="&#xb0;" horiz-adv-x="819" d="M82 1147q0 135 96.5 231.5t231.5 96.5t231 -96.5t96 -231.5t-96 -231.5t-231 -96.5t-231.5 96.5t-96.5 231.5zM242 1147q0 -69 49.5 -118.5t118.5 -49.5t118.5 49.5t49.5 118.5t-49.5 118.5t-118.5 49.5t-118.5 -49.5t-49.5 -118.5z" />
<glyph unicode="&#xb1;" horiz-adv-x="1363" d="M127 66v208h1110v-208h-1110zM127 674v209h453v293h208v-293h449v-209h-449v-293h-208v293h-453z" />
<glyph unicode="&#xb2;" horiz-adv-x="788" d="M63 592v194l369 312q1 1 12 11t13.5 12t12 11t13 13l10.5 12t9.5 13.5t6.5 12.5t5.5 13.5t1.5 13.5q0 40 -32.5 60t-82.5 20q-54 0 -89 -31.5t-38 -78.5l-196 12q9 141 98.5 212t235.5 71q140 0 226.5 -68t86.5 -195q0 -133 -119 -223l-287 -221v-4h406v-172h-662z" />
<glyph unicode="&#xb3;" horiz-adv-x="788" d="M55 821l211 45q19 -102 127 -102q131 0 131 98q0 27 -10.5 46t-25 28.5t-41.5 14.5t-47 6t-54 1h-47v172h66q65 0 104 20t39 73q0 32 -29.5 49.5t-79.5 17.5q-47 0 -81 -24t-44 -66l-211 41q55 234 336 234q134 0 226 -61t92 -173q0 -73 -42.5 -125t-119.5 -65v-4 q82 -10 130 -68.5t48 -136.5q0 -126 -97 -194t-243 -68q-284 0 -338 241z" />
<glyph unicode="&#xb4;" horiz-adv-x="532" d="M170 1155l203 295h278l-289 -295h-192z" />
<glyph unicode="&#xb5;" d="M139 -467v1450h246v-498q0 -34 1.5 -59.5t6.5 -62.5t17.5 -63.5t31.5 -51.5t50.5 -38t72.5 -13q114 0 170 70.5t56 178.5v537h245v-983h-233v158h-4q-37 -82 -111.5 -132.5t-189.5 -50.5q-63 0 -113 15v-457h-246z" />
<glyph unicode="&#xb6;" horiz-adv-x="1228" d="M63 1065q0 198 127 291.5t351 93.5h551v-1708h-185v1561h-219v-1561h-184v950q-197 0 -319 105t-122 268z" />
<glyph unicode="&#xb7;" horiz-adv-x="606" d="M139 596q0 66 48 113t116 47q67 0 115.5 -45.5t48.5 -110.5q0 -66 -48 -113t-116 -47q-66 0 -115 45.5t-49 110.5z" />
<glyph unicode="&#xb8;" horiz-adv-x="532" d="M109 -434l45 94q77 -41 168 -41q43 0 79.5 20t36.5 66q0 36 -33 55t-71 19q-29 0 -76 -15l-55 52l127 184h119l-87 -123q43 0 73 -2.5t66 -12t57.5 -27t36.5 -50t15 -78.5q0 -53 -26.5 -93.5t-70 -62.5t-90.5 -32.5t-97 -10.5q-114 0 -217 58z" />
<glyph unicode="&#xb9;" horiz-adv-x="788" d="M82 1223l307 239h186v-870h-208v649l-172 -154z" />
<glyph unicode="&#xba;" horiz-adv-x="813" d="M63 1171q0 133 97.5 218.5t242.5 85.5q147 0 247 -85.5t100 -218.5q0 -132 -100 -216.5t-247 -84.5q-145 0 -244 85t-96 216zM231 1171q0 -59 46 -106t126 -47q81 0 128 47.5t47 105.5q0 60 -47 108t-128 48q-80 0 -126 -48t-46 -108z" />
<glyph unicode="&#xbb;" horiz-adv-x="1062" d="M78 862l155 105l312 -463l-312 -459l-153 105l235 354zM535 862l155 105l311 -463l-311 -459l-153 105l235 354z" />
<glyph unicode="&#xbc;" horiz-adv-x="1820" d="M59 1223l308 239h186v-870h-209v649l-172 -154zM377 12l852 1504l170 -78l-852 -1504zM1038 174v160l385 536h230v-524h108v-172h-108v-174h-209v174h-406zM1247 346h197v275l-2 4z" />
<glyph unicode="&#xbd;" horiz-adv-x="1820" d="M66 1223l307 239h186v-870h-209v649l-172 -154zM381 12l852 1504l170 -78l-852 -1504zM1096 0v195l366 311q1 1 12 11t13.5 12t12 11t13 13l10.5 12t9.5 13.5t6.5 12.5t5.5 13.5t1.5 13.5q0 40 -32 60t-82 20q-54 0 -89 -31.5t-38 -78.5l-197 12q9 141 98.5 212t235.5 71 q140 0 226.5 -68t86.5 -194q0 -134 -119 -224l-286 -221v-4h405v-172h-659z" />
<glyph unicode="&#xbe;" horiz-adv-x="1820" d="M47 821l211 45q19 -102 127 -102q131 0 131 98q0 27 -10.5 46t-25 28.5t-41.5 14.5t-47 6t-54 1h-47v172h65q144 0 144 93q0 32 -29.5 49.5t-79.5 17.5q-47 0 -81 -24t-44 -66l-211 41q55 234 336 234q134 0 226 -61t92 -173q0 -73 -42.5 -125t-119.5 -65v-4 q82 -10 130 -68.5t48 -136.5q0 -126 -97 -194t-243 -68q-284 0 -338 241zM432 12l852 1504l170 -78l-852 -1504zM1053 174v160l385 536h229v-524h107v-172h-107v-174h-209v174h-405zM1219 322h245v364h-4l-241 -360v-4z" />
<glyph unicode="&#xbf;" horiz-adv-x="1062" d="M55 -92q0 78 32 146.5t64 104t104 103.5l8 8t7.5 7t8.5 8q32 31 41.5 40t28 31t23.5 37t10 39.5t5 56.5v78h246v-112q0 -87 -21 -128.5t-90 -111.5l-157 -160q-52 -52 -52 -133q0 -79 52.5 -129.5t132.5 -50.5q84 0 140 57.5t64 143.5l263 -21q-23 -193 -152 -303.5 t-326 -110.5q-189 0 -310.5 106t-121.5 294zM346 848q0 66 48 113t116 47q66 0 115 -45.5t49 -110.5q0 -66 -48 -113t-116 -47q-67 0 -115.5 45.5t-48.5 110.5z" />
<glyph unicode="&#xc0;" horiz-adv-x="1478" d="M0 0l631 1450h223l625 -1450h-295l-135 332h-629l-131 -332h-289zM354 1843h279l203 -295h-193zM508 553h450l-223 590z" />
<glyph unicode="&#xc1;" horiz-adv-x="1478" d="M0 0l631 1450h223l625 -1450h-295l-135 332h-629l-131 -332h-289zM508 553h450l-223 590zM643 1548l203 295h278l-288 -295h-193z" />
<glyph unicode="&#xc2;" horiz-adv-x="1478" d="M0 0l631 1450h223l625 -1450h-295l-135 332h-629l-131 -332h-289zM367 1548l235 295h277l233 -295h-233l-142 185l-141 -185h-229zM508 553h450l-223 590z" />
<glyph unicode="&#xc3;" horiz-adv-x="1478" d="M0 0l631 1450h223l625 -1450h-295l-135 332h-629l-131 -332h-289zM362 1556q10 54 25 96.5t40.5 82t67.5 61t97 21.5q61 0 164.5 -38t130.5 -38q67 0 94 86h135q-10 -55 -24.5 -97t-40 -81t-67.5 -60.5t-97 -21.5q-61 0 -164.5 39t-130.5 39q-66 0 -94 -89h-136zM508 553 h450l-223 590z" />
<glyph unicode="&#xc4;" horiz-adv-x="1478" d="M0 0l631 1450h223l625 -1450h-295l-135 332h-629l-131 -332h-289zM371 1696q0 60 44.5 103.5t110.5 43.5q68 0 114 -42t46 -105t-46 -105.5t-114 -42.5q-66 0 -110.5 44t-44.5 104zM508 553h450l-223 590zM793 1696q0 60 44.5 103.5t110.5 43.5q68 0 114 -42t46 -105 t-46 -105.5t-114 -42.5q-66 0 -110.5 44t-44.5 104z" />
<glyph unicode="&#xc5;" horiz-adv-x="1478" d="M0 0l631 1450h223l625 -1450h-295l-135 332h-629l-131 -332h-289zM508 553h450l-223 590zM524 1712q0 91 61.5 151t153.5 60q91 0 153 -59.5t62 -149.5t-62 -149.5t-153 -59.5t-153 59t-62 148zM623 1714q0 -46 34.5 -78t81.5 -32t82 31t35 79q0 46 -35 78.5t-82 32.5 t-81.5 -32.5t-34.5 -78.5z" />
<glyph unicode="&#xc6;" horiz-adv-x="2048" d="M-12 0l927 1450h1016v-233h-590v-357h553v-233h-553v-394h615v-233h-873v381h-548l-234 -381h-313zM670 602h413v615h-30z" />
<glyph unicode="&#xc7;" horiz-adv-x="1402" d="M84 719q0 229 98.5 404.5t272 269.5t395.5 94q310 0 508 -230l-201 -147q-134 143 -305 143q-146 0 -260.5 -69t-176 -187t-61.5 -262q0 -234 138 -386t360 -152q189 0 326 176l213 -152q-94 -129 -231.5 -192.5t-301.5 -65.5l-59 -86q43 0 73 -2.5t66 -12t57.5 -27 t36.5 -50t15 -78.5q0 -53 -26.5 -93.5t-70.5 -62.5t-91 -32.5t-97 -10.5q-114 0 -217 58l45 94q77 -41 168 -41q43 0 79.5 20t36.5 66q0 36 -33 55t-71 19q-29 0 -76 -15l-55 52l104 153q-296 34 -477.5 237.5t-181.5 512.5z" />
<glyph unicode="&#xc8;" horiz-adv-x="1251" d="M162 0v1450h960v-233h-702v-357h665v-233h-665v-394h739v-233h-997zM242 1843h278l203 -295h-193z" />
<glyph unicode="&#xc9;" horiz-adv-x="1251" d="M162 0v1450h960v-233h-702v-357h665v-233h-665v-394h739v-233h-997zM530 1548l203 295h279l-289 -295h-193z" />
<glyph unicode="&#xca;" horiz-adv-x="1251" d="M162 0v1450h960v-233h-702v-357h665v-233h-665v-394h739v-233h-997zM254 1548l235 295h277l233 -295h-233l-141 185l-142 -185h-229z" />
<glyph unicode="&#xcb;" horiz-adv-x="1251" d="M162 0v1450h960v-233h-702v-357h665v-233h-665v-394h739v-233h-997zM258 1696q0 60 45 103.5t111 43.5q68 0 113.5 -42t45.5 -105t-45.5 -105.5t-113.5 -42.5q-66 0 -111 44t-45 104zM680 1696q0 60 45 103.5t111 43.5q68 0 113.5 -42t45.5 -105t-45.5 -105.5 t-113.5 -42.5q-66 0 -111 44t-45 104z" />
<glyph unicode="&#xcc;" horiz-adv-x="569" d="M-100 1843h278l203 -295h-193zM156 0v1450h258v-1450h-258z" />
<glyph unicode="&#xcd;" horiz-adv-x="569" d="M156 0v1450h258v-1450h-258zM188 1548l203 295h279l-289 -295h-193z" />
<glyph unicode="&#xce;" horiz-adv-x="569" d="M-88 1548l235 295h277l233 -295h-233l-141 185l-142 -185h-229zM156 0v1450h258v-1450h-258z" />
<glyph unicode="&#xcf;" horiz-adv-x="569" d="M-84 1696q0 60 45 103.5t111 43.5q68 0 113.5 -42t45.5 -105t-45.5 -105.5t-113.5 -42.5q-66 0 -111 44t-45 104zM156 0v1450h258v-1450h-258zM338 1696q0 60 45 103.5t111 43.5q68 0 113.5 -42t45.5 -105t-45.5 -105.5t-113.5 -42.5q-66 0 -111 44t-45 104z" />
<glyph unicode="&#xd0;" horiz-adv-x="1554" d="M27 664v172h135v614h571q116 0 223 -27.5t201 -86.5t163.5 -143t109.5 -204t40 -264q0 -143 -46.5 -265t-123.5 -205t-177.5 -142t-207 -86t-213.5 -27h-540v664h-135zM420 233h192q125 0 229 28t186 85.5t127.5 154t45.5 224.5q0 129 -40.5 225t-114.5 153.5 t-171.5 85.5t-218.5 28h-235v-381h442v-172h-442v-431z" />
<glyph unicode="&#xd1;" horiz-adv-x="1630" d="M162 0v1450h342l702 -1077l4 -4h-4l4 4v1077h258v-1450h-327l-717 1112h-4v-1112h-258zM438 1556q10 54 25 96.5t40.5 82t67.5 61t97 21.5q61 0 164.5 -38t130.5 -38q67 0 94 86h135q-10 -55 -24.5 -97t-40 -81t-67.5 -60.5t-97 -21.5q-61 0 -164.5 39t-130.5 39 q-67 0 -95 -89h-135z" />
<glyph unicode="&#xd2;" horiz-adv-x="1705" d="M84 719q0 229 98.5 404.5t272 269.5t395.5 94q168 3 311.5 -50.5t245 -152t158.5 -242t57 -315.5q0 -223 -98 -396t-273.5 -268.5t-400.5 -99.5q-221 0 -395.5 94t-272.5 266.5t-98 395.5zM354 735q0 -234 138 -386t360 -152q223 0 361.5 152t138.5 386q0 144 -61.5 262 t-176.5 187t-262 69q-146 0 -260.5 -69t-176 -187t-61.5 -262zM469 1843h279l202 -295h-192z" />
<glyph unicode="&#xd3;" horiz-adv-x="1705" d="M84 719q0 229 98.5 404.5t272 269.5t395.5 94q168 3 311.5 -50.5t245 -152t158.5 -242t57 -315.5q0 -223 -98 -396t-273.5 -268.5t-400.5 -99.5q-221 0 -395.5 94t-272.5 266.5t-98 395.5zM354 735q0 -234 138 -386t360 -152q223 0 361.5 152t138.5 386q0 144 -61.5 262 t-176.5 187t-262 69q-146 0 -260.5 -69t-176 -187t-61.5 -262zM758 1548l203 295h278l-289 -295h-192z" />
<glyph unicode="&#xd4;" horiz-adv-x="1705" d="M84 719q0 229 98.5 404.5t272 269.5t395.5 94q168 3 311.5 -50.5t245 -152t158.5 -242t57 -315.5q0 -223 -98 -396t-273.5 -268.5t-400.5 -99.5q-221 0 -395.5 94t-272.5 266.5t-98 395.5zM354 735q0 -234 138 -386t360 -152q223 0 361.5 152t138.5 386q0 144 -61.5 262 t-176.5 187t-262 69q-146 0 -260.5 -69t-176 -187t-61.5 -262zM481 1548l236 295h276l234 -295h-234l-141 185l-141 -185h-230z" />
<glyph unicode="&#xd5;" horiz-adv-x="1705" d="M84 719q0 229 98.5 404.5t272 269.5t395.5 94q168 3 311.5 -50.5t245 -152t158.5 -242t57 -315.5q0 -223 -98 -396t-273.5 -268.5t-400.5 -99.5q-221 0 -395.5 94t-272.5 266.5t-98 395.5zM354 735q0 -234 138 -386t360 -152q223 0 361.5 152t138.5 386q0 144 -61.5 262 t-176.5 187t-262 69q-146 0 -260.5 -69t-176 -187t-61.5 -262zM477 1556q10 54 25 96.5t40.5 82t67.5 61t97 21.5q61 0 164 -38t130 -38q68 0 95 86h135q-10 -54 -25 -96.5t-40.5 -81.5t-67.5 -60.5t-97 -21.5q-61 0 -164 39t-130 39q-67 0 -95 -89h-135z" />
<glyph unicode="&#xd6;" horiz-adv-x="1705" d="M84 719q0 229 98.5 404.5t272 269.5t395.5 94q168 3 311.5 -50.5t245 -152t158.5 -242t57 -315.5q0 -223 -98 -396t-273.5 -268.5t-400.5 -99.5q-221 0 -395.5 94t-272.5 266.5t-98 395.5zM354 735q0 -234 138 -386t360 -152q223 0 361.5 152t138.5 386q0 144 -61.5 262 t-176.5 187t-262 69q-146 0 -260.5 -69t-176 -187t-61.5 -262zM485 1696q0 60 45 103.5t111 43.5q68 0 114 -42t46 -105t-46 -105.5t-114 -42.5q-66 0 -111 44t-45 104zM907 1696q0 60 45 103.5t111 43.5q68 0 114 -42t46 -105t-46 -105.5t-114 -42.5q-66 0 -111 44t-45 104 z" />
<glyph unicode="&#xd7;" horiz-adv-x="1363" d="M158 242l379 372l-377 381l147 146l375 -375l373 373l143 -144l-371 -370l379 -381l-151 -152l-375 371l-371 -371z" />
<glyph unicode="&#xd8;" horiz-adv-x="1705" d="M84 719q0 229 98.5 404.5t272 269.5t395.5 94q267 6 471 -133l178 192l100 -88l-176 -192q199 -208 199 -539q0 -223 -98 -396t-273.5 -268.5t-400.5 -99.5q-282 0 -483 152l-174 -189l-103 88l178 193q-184 206 -184 512zM354 735q0 -187 95 -332l696 758 q-128 92 -293 92q-146 0 -260.5 -69t-176 -187t-61.5 -262zM541 303q131 -106 311 -106q223 0 361.5 152t138.5 386q0 199 -111 332z" />
<glyph unicode="&#xd9;" horiz-adv-x="1478" d="M156 532v918h258v-909q0 -45 9.5 -89.5t33.5 -89t60 -78t93.5 -54.5t128.5 -21q88 0 154.5 31t102 82t52.5 106t17 113v909h258v-918q0 -171 -77 -301.5t-209 -199t-298 -68.5t-298 68.5t-208.5 199t-76.5 301.5zM354 1843h279l203 -295h-193z" />
<glyph unicode="&#xda;" horiz-adv-x="1478" d="M156 532v918h258v-909q0 -45 9.5 -89.5t33.5 -89t60 -78t93.5 -54.5t128.5 -21q88 0 154.5 31t102 82t52.5 106t17 113v909h258v-918q0 -171 -77 -301.5t-209 -199t-298 -68.5t-298 68.5t-208.5 199t-76.5 301.5zM643 1548l203 295h278l-288 -295h-193z" />
<glyph unicode="&#xdb;" horiz-adv-x="1478" d="M156 532v918h258v-909q0 -45 9.5 -89.5t33.5 -89t60 -78t93.5 -54.5t128.5 -21q88 0 154.5 31t102 82t52.5 106t17 113v909h258v-918q0 -171 -77 -301.5t-209 -199t-298 -68.5t-298 68.5t-208.5 199t-76.5 301.5zM367 1548l235 295h277l233 -295h-233l-142 185l-141 -185 h-229z" />
<glyph unicode="&#xdc;" horiz-adv-x="1478" d="M156 532v918h258v-909q0 -45 9.5 -89.5t33.5 -89t60 -78t93.5 -54.5t128.5 -21q88 0 154.5 31t102 82t52.5 106t17 113v909h258v-918q0 -171 -77 -301.5t-209 -199t-298 -68.5t-298 68.5t-208.5 199t-76.5 301.5zM371 1696q0 60 44.5 103.5t110.5 43.5q68 0 114 -42 t46 -105t-46 -105.5t-114 -42.5q-66 0 -110.5 44t-44.5 104zM793 1696q0 60 44.5 103.5t110.5 43.5q68 0 114 -42t46 -105t-46 -105.5t-114 -42.5q-66 0 -110.5 44t-44.5 104z" />
<glyph unicode="&#xdd;" horiz-adv-x="1290" d="M-29 1450h324l356 -578l361 578h307l-545 -829v-621h-258v621zM549 1548l203 295h278l-289 -295h-192z" />
<glyph unicode="&#xde;" horiz-adv-x="1251" d="M162 0v1450h258v-281h229q88 0 164 -12.5t145.5 -42.5t118.5 -77t78 -120t29 -167q0 -77 -16.5 -139t-44.5 -106.5t-71 -77.5t-90.5 -53.5t-108.5 -33t-120 -17t-129 -4.5h-184v-319h-258zM420 541h155q39 0 65.5 1t65 5t64.5 12t55.5 23t47 36t29 53.5t11.5 73.5 q0 63 -27.5 106t-76.5 63t-96.5 27t-108.5 7h-184v-407z" />
<glyph unicode="&#xdf;" horiz-adv-x="1251" d="M115 0v1047q0 275 120 400.5t371 125.5q122 0 221 -41t161.5 -129t62.5 -209q0 -113 -56.5 -197t-160.5 -127v-4q158 -21 242.5 -137t84.5 -283q0 -210 -134.5 -340.5t-346.5 -130.5q-90 0 -172 23v207q49 -21 113 -21q131 0 212.5 77t81.5 206q0 141 -85 217t-226 76 h-29v209h17q93 0 153 51.5t60 140.5q0 83 -60.5 137t-146.5 54q-118 0 -178 -68.5t-60 -179.5v-1104h-245z" />
<glyph unicode="&#xe0;" horiz-adv-x="1099" d="M74 270q0 66 22 119t56.5 88.5t88 61t104.5 39.5t117.5 22t117 10t112.5 2h62v27q0 88 -62 136t-164 48q-152 0 -262 -102l-129 129q155 158 418 158q68 0 125 -11t97.5 -28t73 -45.5t52.5 -54t35 -63t22 -64t10.5 -66t4 -59t0.5 -52.5v-565h-221v135h-6 q-101 -160 -316 -160q-94 0 -173.5 32t-132 101t-52.5 162zM166 1450h278l203 -295h-192zM319 289q0 -63 52.5 -96t120.5 -33q123 0 185 59.5t62 165.5v55h-51q-369 0 -369 -151z" />
<glyph unicode="&#xe1;" horiz-adv-x="1099" d="M74 270q0 66 22 119t56.5 88.5t88 61t104.5 39.5t117.5 22t117 10t112.5 2h62v27q0 88 -62 136t-164 48q-152 0 -262 -102l-129 129q155 158 418 158q68 0 125 -11t97.5 -28t73 -45.5t52.5 -54t35 -63t22 -64t10.5 -66t4 -59t0.5 -52.5v-565h-221v135h-6 q-101 -160 -316 -160q-94 0 -173.5 32t-132 101t-52.5 162zM319 289q0 -63 52.5 -96t120.5 -33q123 0 185 59.5t62 165.5v55h-51q-369 0 -369 -151zM455 1155l202 295h279l-289 -295h-192z" />
<glyph unicode="&#xe2;" horiz-adv-x="1099" d="M74 270q0 66 22 119t56.5 88.5t88 61t104.5 39.5t117.5 22t117 10t112.5 2h62v27q0 88 -62 136t-164 48q-152 0 -262 -102l-129 129q155 158 418 158q68 0 125 -11t97.5 -28t73 -45.5t52.5 -54t35 -63t22 -64t10.5 -66t4 -59t0.5 -52.5v-565h-221v135h-6 q-101 -160 -316 -160q-94 0 -173.5 32t-132 101t-52.5 162zM178 1155l236 295h276l234 -295h-234l-141 184l-141 -184h-230zM319 289q0 -63 52.5 -96t120.5 -33q123 0 185 59.5t62 165.5v55h-51q-369 0 -369 -151z" />
<glyph unicode="&#xe3;" horiz-adv-x="1099" d="M74 270q0 66 22 119t56.5 88.5t88 61t104.5 39.5t117.5 22t117 10t112.5 2h62v27q0 88 -62 136t-164 48q-152 0 -262 -102l-129 129q155 158 418 158q68 0 125 -11t97.5 -28t73 -45.5t52.5 -54t35 -63t22 -64t10.5 -66t4 -59t0.5 -52.5v-565h-221v135h-6 q-101 -160 -316 -160q-94 0 -173.5 32t-132 101t-52.5 162zM174 1163q10 55 24.5 97t40 81t67.5 60.5t97 21.5q61 0 164.5 -37.5t130.5 -37.5q68 0 95 86h135q-10 -54 -25 -96.5t-40.5 -81.5t-67.5 -60.5t-97 -21.5q-61 0 -164.5 38.5t-130.5 38.5q-67 0 -94 -88h-135z M319 289q0 -63 52.5 -96t120.5 -33q123 0 185 59.5t62 165.5v55h-51q-369 0 -369 -151z" />
<glyph unicode="&#xe4;" horiz-adv-x="1099" d="M74 270q0 66 22 119t56.5 88.5t88 61t104.5 39.5t117.5 22t117 10t112.5 2h62v27q0 88 -62 136t-164 48q-152 0 -262 -102l-129 129q155 158 418 158q68 0 125 -11t97.5 -28t73 -45.5t52.5 -54t35 -63t22 -64t10.5 -66t4 -59t0.5 -52.5v-565h-221v135h-6 q-101 -160 -316 -160q-94 0 -173.5 32t-132 101t-52.5 162zM182 1303q0 60 45 103.5t111 43.5q68 0 114 -42t46 -105t-46 -105.5t-114 -42.5q-66 0 -111 44t-45 104zM319 289q0 -63 52.5 -96t120.5 -33q123 0 185 59.5t62 165.5v55h-51q-369 0 -369 -151zM604 1303 q0 60 45 103.5t111 43.5q68 0 114 -42t46 -105t-46 -105.5t-114 -42.5q-66 0 -111 44t-45 104z" />
<glyph unicode="&#xe5;" horiz-adv-x="1099" d="M74 270q0 66 22 119t56.5 88.5t88 61t104.5 39.5t117.5 22t117 10t112.5 2h62v27q0 88 -62 136t-164 48q-152 0 -262 -102l-129 129q155 158 418 158q68 0 125 -11t97.5 -28t73 -45.5t52.5 -54t35 -63t22 -64t10.5 -66t4 -59t0.5 -52.5v-565h-221v135h-6 q-101 -160 -316 -160q-94 0 -173.5 32t-132 101t-52.5 162zM319 289q0 -63 52.5 -96t120.5 -33q123 0 185 59.5t62 165.5v55h-51q-369 0 -369 -151zM336 1339q0 91 61.5 151t153.5 60q91 0 153 -59.5t62 -149.5t-62 -149t-153 -59t-153 58.5t-62 147.5zM434 1341 q0 -46 35 -78t82 -32t82 31t35 79q0 46 -35 78.5t-82 32.5t-82 -32.5t-35 -78.5z" />
<glyph unicode="&#xe6;" horiz-adv-x="1744" d="M74 272q0 169 119.5 243.5t355.5 74.5h201q0 109 -57.5 172t-164.5 63q-152 0 -262 -102l-129 129q155 158 418 158q90 3 179 -34.5t147 -111.5q133 147 317 144q116 0 207.5 -41t149 -112.5t87 -165.5t29.5 -204v-67h-717q-4 -112 74.5 -185t165.5 -73q155 0 262 133 l170 -121q-154 -197 -432 -197q-119 0 -215 49.5t-152 127.5q-113 -175 -395 -175q-67 0 -129.5 18t-114.5 52.5t-83 92.5t-31 132zM319 289q0 -44 30 -74t66.5 -41.5t73.5 -11.5q118 0 189.5 69.5t71.5 161.5v25h-123q-308 0 -308 -129zM958 590h476q-6 106 -69 169.5 t-169 63.5q-100 0 -166 -65.5t-72 -167.5z" />
<glyph unicode="&#xe7;" horiz-adv-x="987" d="M90 492q0 151 72 270t193.5 182.5t269.5 63.5q99 0 193.5 -37.5t162.5 -112.5l-170 -170q-95 98 -186 98q-130 0 -209.5 -86.5t-79.5 -207.5t79.5 -208t209.5 -87q120 0 190 92l164 -176q-67 -67 -170 -102.5t-180 -35.5l-70 -98q43 0 73 -2.5t66 -12t57.5 -27t36.5 -50 t15 -78.5q0 -53 -26.5 -93.5t-70.5 -62.5t-91 -32.5t-97 -10.5q-114 0 -217 58l45 94q77 -41 168 -41q26 0 50.5 6.5t45.5 27t21 52.5q0 36 -33 55t-72 19q-28 0 -75 -15l-56 52l117 170q-187 33 -306.5 170.5t-119.5 335.5z" />
<glyph unicode="&#xe8;" d="M90 492q0 151 72 270t193.5 182.5t269.5 63.5q209 0 334.5 -141.5t125.5 -393.5v-67h-749q12 -107 85.5 -170.5t178.5 -63.5q157 0 264 133l176 -133q-161 -197 -415 -197q-148 0 -269.5 64t-193.5 183t-72 270zM203 1450h278l203 -295h-192zM336 590h504 q-2 108 -68.5 170.5t-181.5 62.5q-107 0 -173.5 -62.5t-80.5 -170.5z" />
<glyph unicode="&#xe9;" d="M90 492q0 151 72 270t193.5 182.5t269.5 63.5q209 0 334.5 -141.5t125.5 -393.5v-67h-749q12 -107 85.5 -170.5t178.5 -63.5q157 0 264 133l176 -133q-161 -197 -415 -197q-148 0 -269.5 64t-193.5 183t-72 270zM336 590h504q-2 108 -68.5 170.5t-181.5 62.5 q-107 0 -173.5 -62.5t-80.5 -170.5zM492 1155l202 295h279l-289 -295h-192z" />
<glyph unicode="&#xea;" d="M90 492q0 151 72 270t193.5 182.5t269.5 63.5q209 0 334.5 -141.5t125.5 -393.5v-67h-749q12 -107 85.5 -170.5t178.5 -63.5q157 0 264 133l176 -133q-161 -197 -415 -197q-148 0 -269.5 64t-193.5 183t-72 270zM215 1155l236 295h276l234 -295h-234l-141 184l-142 -184 h-229zM336 590h504q-2 108 -68.5 170.5t-181.5 62.5q-107 0 -173.5 -62.5t-80.5 -170.5z" />
<glyph unicode="&#xeb;" d="M90 492q0 151 72 270t193.5 182.5t269.5 63.5q209 0 334.5 -141.5t125.5 -393.5v-67h-749q12 -107 85.5 -170.5t178.5 -63.5q157 0 264 133l176 -133q-161 -197 -415 -197q-148 0 -269.5 64t-193.5 183t-72 270zM219 1303q0 60 45 103.5t111 43.5q68 0 114 -42t46 -105 t-46 -105.5t-114 -42.5q-66 0 -111 44t-45 104zM336 590h504q-2 108 -68.5 170.5t-181.5 62.5q-107 0 -173.5 -62.5t-80.5 -170.5zM641 1303q0 60 45 103.5t111 43.5q68 0 113.5 -42t45.5 -105t-45.5 -105.5t-113.5 -42.5q-66 0 -111 44t-45 104z" />
<glyph unicode="&#xec;" horiz-adv-x="532" d="M-94 1450h278l203 -295h-192zM143 0v983h246v-983h-246z" />
<glyph unicode="&#xed;" horiz-adv-x="532" d="M143 0v983h246v-983h-246zM145 1155l203 295h279l-289 -295h-193z" />
<glyph unicode="&#xee;" horiz-adv-x="532" d="M-106 1155l235 295h277l233 -295h-233l-142 184l-141 -184h-229zM143 0v983h246v-983h-246z" />
<glyph unicode="&#xef;" horiz-adv-x="532" d="M-102 1303q0 60 44.5 103.5t110.5 43.5q68 0 114 -42t46 -105t-46 -105.5t-114 -42.5q-66 0 -110.5 44t-44.5 104zM143 0v983h246v-983h-246zM319 1303q0 60 45 103.5t111 43.5q68 0 114 -42t46 -105t-46 -105.5t-114 -42.5q-66 0 -111 44t-45 104z" />
<glyph unicode="&#xf0;" horiz-adv-x="1249" d="M90 492q0 150 71 269.5t188 183t255 63.5q153 0 234 -78l4 4q-80 130 -258 311l-6 6l-218 -100l-122 117l219 102q-22 23 -89.5 77.5t-68.5 55.5l205 119q53 -41 174 -154l227 105l131 -115l-239 -110q362 -395 362 -781q0 -265 -139 -428.5t-395 -163.5 q-148 0 -269.5 64t-193.5 183t-72 270zM336 492q0 -121 79.5 -208t209.5 -87t209 87t79 208t-79 207.5t-209 86.5t-209.5 -86.5t-79.5 -207.5z" />
<glyph unicode="&#xf1;" d="M139 0v983h234v-158h4q37 82 111.5 132.5t189.5 50.5q95 0 166.5 -31.5t112 -87t60 -122.5t19.5 -146v-621h-245v498q0 42 -2 73t-12.5 74.5t-28.5 71.5t-53.5 48.5t-84.5 20.5q-114 0 -169.5 -70.5t-55.5 -178.5v-537h-246zM211 1163q10 55 24.5 97t40 81t67.5 60.5 t97 21.5q61 0 164.5 -37.5t130.5 -37.5q67 0 94 86h136q-10 -54 -25 -96.5t-40.5 -81.5t-67.5 -60.5t-97 -21.5q-61 0 -164.5 38.5t-130.5 38.5q-67 0 -94 -88h-135z" />
<glyph unicode="&#xf2;" horiz-adv-x="1249" d="M90 492q0 151 72 270t193.5 182.5t269.5 63.5t269.5 -64t193 -182.5t71.5 -269.5t-71.5 -270t-193 -183t-269.5 -64t-269.5 64t-193.5 183t-72 270zM240 1450h278l203 -295h-193zM336 492q0 -121 79.5 -208t209.5 -87t209 87t79 208t-79 207.5t-209 86.5t-209.5 -86.5 t-79.5 -207.5z" />
<glyph unicode="&#xf3;" horiz-adv-x="1249" d="M90 492q0 151 72 270t193.5 182.5t269.5 63.5t269.5 -64t193 -182.5t71.5 -269.5t-71.5 -270t-193 -183t-269.5 -64t-269.5 64t-193.5 183t-72 270zM336 492q0 -121 79.5 -208t209.5 -87t209 87t79 208t-79 207.5t-209 86.5t-209.5 -86.5t-79.5 -207.5zM528 1155l203 295 h279l-289 -295h-193z" />
<glyph unicode="&#xf4;" horiz-adv-x="1249" d="M90 492q0 151 72 270t193.5 182.5t269.5 63.5t269.5 -64t193 -182.5t71.5 -269.5t-71.5 -270t-193 -183t-269.5 -64t-269.5 64t-193.5 183t-72 270zM252 1155l235 295h277l233 -295h-233l-141 184l-142 -184h-229zM336 492q0 -121 79.5 -208t209.5 -87t209 87t79 208 t-79 207.5t-209 86.5t-209.5 -86.5t-79.5 -207.5z" />
<glyph unicode="&#xf5;" horiz-adv-x="1249" d="M90 492q0 151 72 270t193.5 182.5t269.5 63.5t269.5 -64t193 -182.5t71.5 -269.5t-71.5 -270t-193 -183t-269.5 -64t-269.5 64t-193.5 183t-72 270zM248 1163q10 55 24.5 97t40 81t67.5 60.5t97 21.5q61 0 164.5 -37.5t130.5 -37.5q67 0 94 86h135q-10 -55 -24.5 -97 t-40 -81t-67.5 -60.5t-97 -21.5q-61 0 -164.5 38.5t-130.5 38.5q-67 0 -94 -88h-135zM336 492q0 -121 79.5 -208t209.5 -87t209 87t79 208t-79 207.5t-209 86.5t-209.5 -86.5t-79.5 -207.5z" />
<glyph unicode="&#xf6;" horiz-adv-x="1249" d="M90 492q0 151 72 270t193.5 182.5t269.5 63.5t269.5 -64t193 -182.5t71.5 -269.5t-71.5 -270t-193 -183t-269.5 -64t-269.5 64t-193.5 183t-72 270zM256 1303q0 60 45 103.5t111 43.5q68 0 113.5 -42t45.5 -105t-45.5 -105.5t-113.5 -42.5q-66 0 -111 44t-45 104z M336 492q0 -121 79.5 -208t209.5 -87t209 87t79 208t-79 207.5t-209 86.5t-209.5 -86.5t-79.5 -207.5zM678 1303q0 60 45 103.5t111 43.5q68 0 113.5 -42t45.5 -105t-45.5 -105.5t-113.5 -42.5q-66 0 -111 44t-45 104z" />
<glyph unicode="&#xf7;" horiz-adv-x="1363" d="M127 516v209h1110v-209h-1110zM528 252q0 63 45.5 108.5t108.5 45.5t108.5 -45.5t45.5 -108.5t-45.5 -108.5t-108.5 -45.5t-108.5 45.5t-45.5 108.5zM528 989q0 63 45.5 108.5t108.5 45.5t108.5 -45.5t45.5 -108.5t-45.5 -108t-108.5 -45t-108.5 45t-45.5 108z" />
<glyph unicode="&#xf8;" horiz-adv-x="1249" d="M74 14l137 140q-121 137 -121 338q0 151 72 270t193.5 182.5t269.5 63.5q189 0 329 -103l146 148l86 -82l-144 -146q117 -140 117 -333q0 -151 -71.5 -270t-193 -183t-269.5 -64q-185 0 -326 101l-143 -146zM336 492q0 -93 47 -164l403 409q-68 49 -161 49 q-130 0 -209.5 -86.5t-79.5 -207.5zM465 244q65 -47 160 -47q130 0 209 87t79 208q0 89 -43 159z" />
<glyph unicode="&#xf9;" d="M139 362v621h246v-498q0 -34 1.5 -59.5t6.5 -62.5t17.5 -63.5t31.5 -51.5t50.5 -38t72.5 -13q114 0 170 70.5t56 178.5v537h245v-983h-233v158h-4q-37 -82 -111.5 -132.5t-189.5 -50.5q-95 0 -166.5 31.5t-112.5 87t-60.5 122.5t-19.5 146zM203 1450h278l203 -295h-192z " />
<glyph unicode="&#xfa;" d="M139 362v621h246v-498q0 -34 1.5 -59.5t6.5 -62.5t17.5 -63.5t31.5 -51.5t50.5 -38t72.5 -13q114 0 170 70.5t56 178.5v537h245v-983h-233v158h-4q-37 -82 -111.5 -132.5t-189.5 -50.5q-95 0 -166.5 31.5t-112.5 87t-60.5 122.5t-19.5 146zM492 1155l202 295h279 l-289 -295h-192z" />
<glyph unicode="&#xfb;" d="M139 362v621h246v-498q0 -34 1.5 -59.5t6.5 -62.5t17.5 -63.5t31.5 -51.5t50.5 -38t72.5 -13q114 0 170 70.5t56 178.5v537h245v-983h-233v158h-4q-37 -82 -111.5 -132.5t-189.5 -50.5q-95 0 -166.5 31.5t-112.5 87t-60.5 122.5t-19.5 146zM215 1155l236 295h276 l234 -295h-234l-141 184l-142 -184h-229z" />
<glyph unicode="&#xfc;" d="M139 362v621h246v-498q0 -34 1.5 -59.5t6.5 -62.5t17.5 -63.5t31.5 -51.5t50.5 -38t72.5 -13q114 0 170 70.5t56 178.5v537h245v-983h-233v158h-4q-37 -82 -111.5 -132.5t-189.5 -50.5q-95 0 -166.5 31.5t-112.5 87t-60.5 122.5t-19.5 146zM219 1303q0 60 45 103.5 t111 43.5q68 0 114 -42t46 -105t-46 -105.5t-114 -42.5q-66 0 -111 44t-45 104zM641 1303q0 60 45 103.5t111 43.5q68 0 113.5 -42t45.5 -105t-45.5 -105.5t-113.5 -42.5q-66 0 -111 44t-45 104z" />
<glyph unicode="&#xfd;" horiz-adv-x="1062" d="M6 983h270l275 -682h4l246 682h256l-465 -1194q-29 -73 -59 -122t-73.5 -86.5t-103 -55t-139.5 -17.5q-93 0 -188 25l30 221q67 -24 125 -24q86 0 124 31.5t71 113.5l47 117zM436 1155l203 295h279l-289 -295h-193z" />
<glyph unicode="&#xfe;" horiz-adv-x="1290" d="M139 -467v2015h246v-692h4q43 72 132 112t194 40q222 0 353.5 -146t131.5 -370q0 -221 -133.5 -369t-341.5 -148q-213 0 -334 150h-6v-592h-246zM377 492q0 -121 79.5 -208t209.5 -87t209 87t79 208t-79 207.5t-209 86.5t-209.5 -86.5t-79.5 -207.5z" />
<glyph unicode="&#xff;" horiz-adv-x="1062" d="M6 983h270l275 -682h4l246 682h256l-465 -1194q-29 -73 -59 -122t-73.5 -86.5t-103 -55t-139.5 -17.5q-93 0 -188 25l30 221q67 -24 125 -24q86 0 124 31.5t71 113.5l47 117zM164 1303q0 60 44.5 103.5t110.5 43.5q68 0 114 -42t46 -105t-46 -105.5t-114 -42.5 q-66 0 -110.5 44t-44.5 104zM586 1303q0 60 44.5 103.5t110.5 43.5q68 0 114 -42t46 -105t-46 -105.5t-114 -42.5q-66 0 -110.5 44t-44.5 104z" />
<glyph unicode="&#x152;" horiz-adv-x="2048" d="M102 725q0 155 56.5 288t160.5 230t260.5 152t348.5 55h983v-233h-590v-357h553v-233h-553v-394h625v-233h-1018q-192 0 -349 55.5t-260.5 153t-160 230t-56.5 286.5zM385 725q0 -82 20.5 -152t55 -119.5t81.5 -88.5t97 -63.5t104.5 -40.5t101 -22t89.5 -6h129v984h-129 q-43 0 -89.5 -6t-101 -22t-104.5 -40.5t-97 -63.5t-81.5 -88.5t-55 -119.5t-20.5 -152z" />
<glyph unicode="&#x153;" horiz-adv-x="1896" d="M74 492q0 151 71.5 269.5t193 182.5t269.5 64q233 0 377 -160q129 160 365 160q116 0 207.5 -41t149 -112.5t87 -165.5t29.5 -204v-67h-717q-4 -103 75 -174.5t165 -71.5q155 0 262 133l170 -121q-150 -209 -432 -209q-120 0 -213.5 41t-151.5 117q-142 -158 -373 -158 q-148 0 -269.5 64t-193 183t-71.5 270zM319 492q0 -129 79 -218.5t210 -89.5q134 0 213.5 89.5t79.5 218.5t-79.5 218t-213.5 89q-131 0 -210 -89t-79 -218zM1098 590h479q-1 106 -64.5 169.5t-162.5 63.5q-96 0 -172.5 -62.5t-79.5 -170.5z" />
<glyph unicode="&#x178;" horiz-adv-x="1290" d="M-29 1450h324l356 -578l361 578h307l-545 -829v-621h-258v621zM276 1696q0 60 45 103.5t111 43.5q68 0 114 -42t46 -105t-46 -105.5t-114 -42.5q-66 0 -111 44t-45 104zM698 1696q0 60 45 103.5t111 43.5q68 0 114 -42t46 -105t-46 -105.5t-114 -42.5q-66 0 -111 44 t-45 104z" />
<glyph unicode="&#x2c6;" horiz-adv-x="532" d="M-106 1155l235 295h277l233 -295h-233l-142 184l-141 -184h-229z" />
<glyph unicode="&#x2dc;" horiz-adv-x="532" d="M-111 1163q10 54 25 96.5t40.5 81.5t67.5 60.5t97 21.5q61 0 164.5 -37.5t130.5 -37.5q67 0 94 86h135q-10 -55 -24.5 -97t-40 -81t-67.5 -60.5t-97 -21.5q-61 0 -164.5 38.5t-130.5 38.5q-67 0 -94 -88h-136z" />
<glyph unicode="&#x2000;" horiz-adv-x="961" />
<glyph unicode="&#x2001;" horiz-adv-x="1923" />
<glyph unicode="&#x2002;" horiz-adv-x="961" />
<glyph unicode="&#x2003;" horiz-adv-x="1923" />
<glyph unicode="&#x2004;" horiz-adv-x="641" />
<glyph unicode="&#x2005;" horiz-adv-x="480" />
<glyph unicode="&#x2006;" horiz-adv-x="320" />
<glyph unicode="&#x2007;" horiz-adv-x="320" />
<glyph unicode="&#x2008;" horiz-adv-x="240" />
<glyph unicode="&#x2009;" horiz-adv-x="384" />
<glyph unicode="&#x200a;" horiz-adv-x="106" />
<glyph unicode="&#x2010;" horiz-adv-x="645" d="M70 399v209h505v-209h-505z" />
<glyph unicode="&#x2011;" horiz-adv-x="645" d="M70 399v209h505v-209h-505z" />
<glyph unicode="&#x2012;" horiz-adv-x="645" d="M70 399v209h505v-209h-505z" />
<glyph unicode="&#x2013;" horiz-adv-x="1024" d="M0 406v196h1024v-196h-1024z" />
<glyph unicode="&#x2014;" horiz-adv-x="2048" d="M0 406v196h2048v-196h-2048z" />
<glyph unicode="&#x2018;" horiz-adv-x="606" d="M106 909l175 541h219l-144 -541h-250z" />
<glyph unicode="&#x2019;" horiz-adv-x="606" d="M106 909l144 541h250l-174 -541h-220z" />
<glyph unicode="&#x201a;" horiz-adv-x="606" d="M106 -258l144 541h250l-174 -541h-220z" />
<glyph unicode="&#x201c;" horiz-adv-x="1062" d="M119 909l174 541h219l-143 -541h-250zM551 909l174 541h219l-143 -541h-250z" />
<glyph unicode="&#x201d;" horiz-adv-x="1062" d="M119 909l143 541h250l-174 -541h-219zM551 909l143 541h250l-174 -541h-219z" />
<glyph unicode="&#x201e;" horiz-adv-x="1062" d="M121 -258l143 541h250l-174 -541h-219zM549 -258l143 541h250l-174 -541h-219z" />
<glyph unicode="&#x2022;" horiz-adv-x="1024" d="M150 725q0 151 105.5 256.5t256.5 105.5t256.5 -105.5t105.5 -256.5t-105.5 -257t-256.5 -106t-256.5 106t-105.5 257z" />
<glyph unicode="&#x2026;" horiz-adv-x="2048" d="M178 143q0 66 48 113t116 47q67 0 115.5 -45.5t48.5 -110.5q0 -66 -48 -112.5t-116 -46.5q-66 0 -115 45t-49 110zM860 143q0 66 48 113t116 47q67 0 115.5 -45.5t48.5 -110.5q0 -66 -48 -112.5t-116 -46.5q-66 0 -115 45t-49 110zM1542 143q0 66 48 113t116 47 q67 0 115.5 -45.5t48.5 -110.5q0 -66 -48 -112.5t-116 -46.5q-66 0 -115 45t-49 110z" />
<glyph unicode="&#x202f;" horiz-adv-x="384" />
<glyph unicode="&#x2039;" horiz-adv-x="606" d="M61 508l312 459l153 -105l-235 -354l237 -358l-155 -105z" />
<glyph unicode="&#x203a;" horiz-adv-x="606" d="M78 862l155 105l312 -463l-312 -459l-153 105l235 354z" />
<glyph unicode="&#x205f;" horiz-adv-x="480" />
<glyph unicode="&#x2122;" horiz-adv-x="2048" d="M82 1266v184h709v-184h-250v-660h-209v660h-250zM983 606v844h291l201 -549l200 549h291v-844h-209v549h-4l-207 -549h-143l-207 549h-4v-549h-209z" />
<glyph unicode="&#xe000;" horiz-adv-x="983" d="M0 0v983h983v-983h-983z" />
<glyph unicode="&#xfb01;" horiz-adv-x="1214" d="M25 774v209h202v139q0 87 9 152t32.5 123.5t64 95.5t106 58.5t155.5 21.5q85 0 156 -14l-17 -209q-61 14 -102 14q-49 0 -82 -15.5t-48.5 -46t-21.5 -63t-6 -78.5v-178h227v-209h-227v-774h-246v774h-202zM827 1317q0 60 45 103.5t111 43.5q68 0 114 -42t46 -105 t-46 -105.5t-114 -42.5q-66 0 -111 44t-45 104zM860 0v983h246v-983h-246z" />
<glyph unicode="&#xfb02;" horiz-adv-x="1214" d="M25 774v209h202v139q0 87 9 152t32.5 123.5t64 95.5t106 58.5t155.5 21.5q85 0 156 -14l-17 -209q-61 14 -102 14q-49 0 -82 -15.5t-48.5 -46t-21.5 -63t-6 -78.5v-178h227v-209h-227v-774h-246v774h-202zM860 0v1548h246v-1548h-246z" />
</font>
</defs>
</svg>
